<?xml version="1.0" standalone="no"?>
<!DOCTYPE svg PUBLIC "-//W3C//DTD SVG 1.1//EN" "http://www.w3.org/Graphics/SVG/1.1/DTD/svg11.dtd" >
<svg role="img" xmlns="http://www.w3.org/2000/svg">
<metadata>Generated by IcoMoon</metadata>
<defs>
<font id="icomoon" horiz-adv-x="1024">
<font-face units-per-em="1024" ascent="960" descent="-64" />
<missing-glyph horiz-adv-x="1024" />
<glyph unicode="&#x20;" horiz-adv-x="512" d="" />
<glyph unicode="&#xe900;" glyph-name="amazon-pay" horiz-adv-x="2793" d="M1121.745 314.88c-95.884-70.749-234.589-107.985-353.745-107.985-167.564 0-318.371 61.44-431.942 164.771-9.309 8.378-0.931 19.549 10.24 13.033 122.88-71.68 275.549-114.502 431.942-114.502 106.124 0 222.487 22.342 329.542 67.025 15.825 7.447 29.789-10.24 13.964-22.342v0zM1161.775 360.495c-12.102 15.825-80.989 7.447-111.709 3.724-9.309-0.931-11.171 7.447-2.793 13.033 54.924 38.167 144.291 26.996 154.531 14.895 10.24-13.033-2.793-103.331-53.993-146.153-7.447-6.516-15.825-2.793-12.102 5.585 12.102 28.858 38.167 93.091 26.065 108.916v0zM1051.927 649.076v37.236c0 5.585 4.655 9.309 9.309 9.309h167.564c5.585 0 9.309-3.724 9.309-9.309v-31.651c0-5.585-4.655-12.102-13.033-23.273l-86.575-123.811c32.582 0.931 66.095-3.724 95.884-20.48 6.516-3.724 8.378-9.309 9.309-14.895v-40.029c0-5.585-5.585-12.102-12.102-8.378-51.2 26.996-120.087 29.789-176.873 0-5.585-2.793-12.102 2.793-12.102 8.378v38.167c0 6.516 0 16.756 6.516 26.065l100.538 144.291h-87.505c-5.585-0.931-10.24 2.793-10.24 8.378v0zM441.251 415.418h-51.2c-4.655 0-8.378 3.724-9.309 8.378v261.585c0 5.585 4.655 9.309 10.24 9.309h47.476c4.655 0 9.309-3.724 9.309-8.378v-34.444h0.931c12.102 32.582 35.375 48.407 67.025 48.407s52.131-15.825 66.095-48.407c12.102 32.582 40.029 48.407 70.749 48.407 21.411 0 44.684-8.378 58.647-28.858 15.825-22.342 13.033-53.993 13.033-81.92v-164.771c0-5.585-4.655-9.309-10.24-9.309h-51.2c-4.655 0-9.309 4.655-9.309 9.309v138.705c0 11.171 0.931 38.167-1.862 49.338-3.724 17.687-14.895 22.342-29.789 22.342-12.102 0-25.135-8.378-30.72-21.411s-4.655-35.375-4.655-50.269v-138.705c0-5.585-4.655-9.309-10.24-9.309h-51.2c-4.655 0-9.309 4.655-9.309 9.309v138.705c0 28.858 4.655 71.68-31.651 71.68s-35.375-41.891-35.375-71.68v-138.705c1.862-4.655-1.862-9.309-7.447-9.309v0zM1383.331 647.215c-37.236 0-40.029-51.2-40.029-82.851s-0.931-100.538 39.098-100.538c39.098 0 40.96 54.924 40.96 88.436 0 22.342-0.931 48.407-7.447 68.887-5.585 18.618-16.756 26.065-32.582 26.065v0zM1382.4 700.276c75.404 0 116.364-65.164 116.364-147.084 0-80.058-45.615-143.36-116.364-143.36-74.473 0-114.502 65.164-114.502 146.153s40.96 144.291 114.502 144.291v0zM1597.44 415.418h-51.2c-4.655 0-9.309 4.655-9.309 9.309v261.585c0 4.655 4.655 8.378 10.24 8.378h47.476c4.655 0 8.378-3.724 9.309-7.447v-40.029h0.931c13.964 35.375 34.444 53.062 69.818 53.062 23.273 0 45.615-8.378 59.578-30.72 13.033-20.48 13.033-55.855 13.033-80.989v-164.771c-0.931-4.655-4.655-8.378-9.309-8.378h-51.2c-4.655 0-8.378 3.724-9.309 8.378v141.498c0 28.858 3.724 70.749-31.651 70.749-12.102 0-24.204-8.378-29.789-20.48-7.447-15.825-8.378-31.651-8.378-49.338v-140.567c-0.931-5.585-5.585-10.24-10.24-10.24v0zM970.007 416.349v0 0c10.24 8.378 28.858 25.135 40.029 32.582 3.724 3.724 3.724 9.309 0 13.964-9.309 13.033-19.549 23.273-19.549 47.476v79.127c0 33.513 2.793 64.233-22.342 87.505-19.549 17.687-51.2 25.135-75.404 25.135h-3.724c-47.476-0.931-100.538-19.549-111.709-78.196-0.931-5.585 3.724-9.309 7.447-10.24l49.338-5.585c3.724 0 7.447 4.655 8.378 9.309 4.655 20.48 21.411 30.72 40.96 30.72 11.171 0 22.342-3.724 28.858-13.033 7.447-11.171 6.516-25.135 6.516-37.236v-6.516c-29.789-3.724-67.956-5.585-95.884-17.687-31.651-13.033-53.993-41.891-53.993-82.851 0-53.062 33.513-79.127 76.335-79.127 36.305 0 55.855 8.378 83.782 37.236 9.309-13.033 12.102-19.549 28.858-33.513 3.724-1.862 8.378-1.862 12.102 0.931zM918.807 540.16c0-19.549 0.931-36.305-9.309-53.993-8.378-13.964-21.411-23.273-35.375-23.273-19.549 0-30.72 14.895-30.72 37.236 0 43.753 39.098 51.2 75.404 51.2v-11.171zM301.615 416.349v0 0c10.24 8.378 28.858 25.135 39.098 32.582 3.724 3.724 2.793 9.309 0 13.964-9.309 13.033-19.549 23.273-19.549 47.476v79.127c0 33.513 2.793 64.233-22.342 87.505-19.549 17.687-51.2 25.135-75.404 25.135h-3.724c-47.476-0.931-100.538-19.549-111.709-78.196-0.931-5.585 3.724-9.309 7.447-10.24l49.338-5.585c4.655 0 8.378 4.655 9.309 9.309 4.655 20.48 21.411 30.72 40.96 30.72 11.171 0 22.342-3.724 28.858-13.033 7.447-11.171 6.516-25.135 6.516-37.236v-6.516c-29.789-3.724-67.956-5.585-95.884-17.687-31.651-13.033-53.993-41.891-53.993-82.851 0-53.062 33.513-79.127 76.335-79.127 36.305 0 55.855 8.378 83.782 37.236 9.309-13.033 12.102-19.549 28.858-33.513 3.724-1.862 8.378-1.862 12.102 0.931zM250.415 540.16c0-19.549 0.931-36.305-9.309-53.993-8.378-13.964-21.411-23.273-35.375-23.273-19.549 0-30.72 14.895-30.72 37.236 0 43.753 39.098 51.2 75.404 51.2v-11.171zM2442.705 321.396c0 6.516 0 13.033 0 19.549 0 5.585 2.793 9.309 8.378 9.309 10.24-1.862 26.065-2.793 36.305-0.931 13.964 2.793 24.204 13.033 29.789 26.065 8.378 19.549 13.964 34.444 17.687 44.684l-106.124 262.516c-1.862 4.655-1.862 13.033 6.516 13.033h37.236c7.447 0 10.24-4.655 11.171-9.309l77.265-213.178 73.542 213.178c1.862 4.655 4.655 9.309 11.171 9.309h35.375c8.378 0 8.378-8.378 6.516-13.033l-105.193-270.895c-13.964-36.305-31.651-93.091-72.611-103.331-20.48-5.585-46.545-3.724-61.44 2.793-4.655 1.862-5.585 7.447-5.585 10.24v0zM2393.367 431.244c0-4.655-3.724-9.309-9.309-9.309h-26.065c-5.585 0-9.309 3.724-10.24 9.309l-2.793 17.687c-12.102-10.24-26.996-19.549-42.822-25.135-30.72-12.102-66.095-13.964-95.884 4.655-21.411 13.033-33.513 39.098-33.513 66.095 0 20.48 6.516 40.96 20.48 56.785 18.618 20.48 46.545 30.72 80.058 30.72 20.48 0 48.407-2.793 69.818-9.309v35.375c0 36.305-14.895 52.131-55.855 52.131-30.72 0-54.924-4.655-87.505-14.895-5.585 0-8.378 3.724-8.378 8.378v20.48c0 4.655 3.724 9.309 8.378 11.171 23.273 10.24 56.785 16.756 92.16 17.687 45.615 0 100.538-10.24 100.538-80.989v-190.836h0.931zM2343.098 483.375v53.993c-17.687 4.655-46.545 6.516-57.716 6.516-17.687 0-37.236-4.655-47.476-14.895-7.447-8.378-11.171-19.549-11.171-30.72 0-13.964 4.655-28.858 16.756-36.305 13.033-9.309 34.444-8.378 53.993-2.793 18.618 6.516 36.305 15.825 45.615 24.204v0zM2007.971 659.316v0c-22.342 0-48.407-8.378-69.818-25.135v-148.945c19.549-14.895 46.545-25.135 67.025-25.135 23.273 0 38.167 3.724 52.131 16.756 17.687 18.618 24.204 49.338 24.204 84.713 0 52.131-15.825 97.745-73.542 97.745zM1929.775 312.087h-35.375c-4.655 0-9.309 3.724-9.309 9.309 0 121.949 0 242.967 0 364.916 0 4.655 3.724 9.309 9.309 9.309h26.996c5.585 0 9.309-3.724 10.24-9.309l2.793-19.549c25.135 22.342 57.716 36.305 88.436 36.305 86.575 0 114.502-70.749 114.502-145.222 0-79.127-43.753-142.429-116.364-142.429-30.72 0-59.578 11.171-81.92 31.651v-125.673c-0.931-4.655-4.655-9.309-9.309-9.309v0z" />
<glyph unicode="&#xe901;" glyph-name="american-express" d="M738.66 584.62l-18.833-45.725h37.859zM87.752 584.62l-18.619-45.725h37.388zM519.888 578.143c-3.249 1.838-8.252 2.074-12.997 2.074h-33.776v-25.46h33.327c5.28 0 9.727 0.086 13.553 2.351 3.527 1.86 5.644 5.9 5.644 10.902 0 4.917-2.202 8.465-5.75 10.133zM637.376 380.834c-3.335 1.988-8.252 2.074-13.083 2.074h-33.776v-25.759h33.327c5.344 0 9.898 0.171 13.596 2.33 3.549 2.18 5.665 6.092 5.665 11.031-0.064 4.938-2.18 8.487-5.729 10.325zM503.877 382.95h-35.742v-29.222h35.4c10.539 0 17.102 5.216 17.102 15.114-0.021 10.090-6.841 14.109-16.76 14.109zM1010.319 365.72c-0.192 0.192-0.406 0.406-0.599 0.556 5.195 3.378 8.658 9.235 8.658 15.904v24.434c0 10.496-8.487 18.961-18.961 18.961h-54.939c-17.123 0-30.035-5.045-39.441-12.655-2.629 7.354-9.384 12.655-17.657 12.655h-54.939c-15.114 0-27.021-3.741-36.084-9.898-3.292 5.879-9.213 9.898-16.311 9.898h-91.493c-7.375 0-13.596-4.297-16.738-10.432-1.304 0.919-2.266 1.988-3.634 2.8-13.275 7.097-27.384 7.632-41.92 7.632h-63.34c-7.375 0-13.617-4.34-16.738-10.517-9.641 6.263-23.13 10.517-42.305 10.517h-87.603c-5.28 0-10.304-2.138-13.916-6.028l-20.757-22.382-19.923 22.125c-3.57 4.083-8.679 6.306-14.087 6.306h-110.262c-10.475 0-18.94-8.487-18.94-18.961v-114.73c0-10.496 8.487-18.961 18.94-18.961h108.616c5.28 0 10.304 2.202 13.895 6.092l20.928 22.638 19.859-22.339c3.591-4.062 8.765-6.349 14.173-6.349h53.293c10.496 0 18.961 8.487 18.961 18.919v19.581h15.242c18.534 0 31.937 3.805 41.685 9.598v-29.18c0-10.453 8.487-18.919 18.961-18.919h27.555c10.496 0 18.961 8.487 18.961 18.919v23.002h10.325c2.522 0 4.297-0.086 5.579-0.171 0.086-2.052 0.086-4.511 0.043-6.135v-16.695c0-10.453 8.529-18.919 18.961-18.919h27.512c3.078 0 5.857 0.834 8.38 2.138 2.565-1.261 5.323-2.138 8.358-2.138h91.515c2.971 0 5.729 0.834 8.23 2.052 2.501-1.218 5.195-2.052 8.23-2.052h53.4c16.995 0 30.847 4.169 41.215 11.522 2.843-6.755 9.556-11.522 17.401-11.522h53.4c38.842 0 61.993 20.629 61.993 55.153 0 15.99-4.318 27.897-13.681 37.581zM502.316 330.448h-34.203v-38.5h-53.293l-33.776 37.966-35.101-37.966h-108.616v114.752h110.262l33.776-37.623 34.887 37.623h87.603c21.74 0 46.217-6.092 46.217-37.859 0-31.83-23.771-38.457-47.756-38.393zM653.943 345.219c6.071-2.223 11.052-6.263 13.361-9.641 3.912-5.601 4.425-10.817 4.553-20.928v-22.745h-27.512v14.365c0 6.883 0.663 17.123-4.468 22.467-3.933 4.083-10.026 5.045-20.073 5.045h-29.286v-41.877h-27.555v114.73h63.34c13.852 0 23.942-0.577 32.985-5.387 8.636-5.216 14.087-12.399 14.087-25.46 0-18.341-12.249-27.683-19.432-30.569zM780.089 382.928h-64.216v-20.885h62.635v-23.429h-62.635v-22.788l64.216-0.128v-23.793h-91.493v114.73h91.493v-23.707zM850.013 292.034h-53.4v24.648h53.165c5.173 0 8.871 0.641 11.18 2.843 1.881 1.753 3.207 4.382 3.207 7.503 0 3.335-1.411 5.964-3.335 7.567-2.138 1.753-4.959 2.544-9.769 2.544-25.61 0.834-57.739-0.791-57.739 35.486 0 16.695 10.432 34.16 39.205 34.16h54.939v-24.413h-50.3c-5.024 0-8.252-0.214-10.988-2.095-3.014-1.881-4.147-4.639-4.147-8.273 0-4.34 2.544-7.225 5.986-8.551 2.929-1.005 6.007-1.304 10.688-1.304l14.729-0.428c14.857-0.406 25.097-2.971 31.275-9.235 5.387-5.537 8.23-12.548 8.23-24.327 0-24.733-15.37-36.255-42.925-36.127zM962.050 292.034h-53.4v24.648h53.186c5.173 0 8.871 0.641 11.159 2.843 1.881 1.753 3.207 4.382 3.207 7.503 0 3.335-1.411 5.964-3.335 7.567-2.116 1.753-4.938 2.544-9.769 2.544-25.631 0.834-57.739-0.791-57.739 35.486 0 16.695 10.432 34.16 39.205 34.16h54.939v-24.413h-50.279c-5.045 0-8.294-0.214-11.009-2.095-3.014-1.881-4.126-4.639-4.126-8.273 0-4.34 2.565-7.225 5.964-8.551 2.95-1.005 6.007-1.304 10.688-1.304l14.729-0.428c14.878-0.406 25.139-2.971 31.317-9.235 5.344-5.537 8.23-12.548 8.23-24.327 0-24.733-15.413-36.255-42.968-36.127zM924.255 623.056h-28.068c-10.496 0-18.961-8.487-18.961-18.94v-11.843l-13.019 21.612c-3.463 5.665-9.598 9.149-16.204 9.149h-41.792c-10.475 0-18.94-8.487-18.94-18.94v-16.097l-10.069 23.557c-2.971 6.948-9.812 11.479-17.379 11.479h-41.087c-4.169 0-8.145-1.368-11.308-3.762-3.142 2.373-7.097 3.762-11.351 3.762h-26.486c-22.531 0-39.205-5.451-51.476-16.097-1.411 9.042-8.914 16.097-18.363 16.097h-28.004c-7.482 0-13.745-4.425-16.866-10.667-1.176 0.855-2.074 1.881-3.399 2.651-12.869 7.439-26.401 8.016-42.711 8.016h-63.062c-3.549 0-6.648-1.24-9.513-2.929-2.8 1.689-5.943 2.929-9.491 2.929h-91.579c-3.869 0-7.225-1.432-10.218-3.399-3.014 1.967-6.37 3.399-10.218 3.399h-45.704c-7.567 0-14.429-4.553-17.401-11.565l-16.289-38.393-17.935 38.949c-3.121 6.712-9.855 11.009-17.208 11.009h-44.763c-10.475 0-18.94-8.487-18.94-18.94v-16.482l-10.282 23.985c-2.993 6.948-9.833 11.458-17.422 11.458h-40.702c-7.589 0-14.429-4.532-17.422-11.479l-49.082-114.73c-2.522-5.879-1.903-12.548 1.582-17.893 3.506-5.301 9.449-8.508 15.819-8.508h29.8c7.61 0 14.515 4.617 17.444 11.672l5.793 13.938h31.766l5.708-13.852c2.907-7.097 9.833-11.736 17.529-11.736h55.773c10.475 0 18.94 8.487 18.94 18.94v0.449l3.591-8.145c3.036-6.841 9.833-11.266 17.315-11.266l24.092-0.043c7.525 0 14.28 4.425 17.315 11.287l3.634 8.123v-0.47c0-10.453 8.465-18.919 18.94-18.919h28.111c3.848 0 7.204 1.454 10.218 3.399 2.993-1.945 6.349-3.399 10.218-3.399h91.579c3.549 0 6.691 1.24 9.491 2.929 2.843-1.689 5.964-2.929 9.513-2.929h27.448c10.475 0 18.94 8.487 18.94 18.94v22.788h10.475c2.373 0 4.062-0.064 5.323-0.15 0.128-1.945 0.086-4.254 0.086-5.793l-0.043-2.522 0.107-14.472c0.086-10.389 8.572-18.79 18.961-18.79h27.662c3.1 0 5.9 0.962 8.487 2.287 2.629-1.347 5.451-2.287 8.572-2.287h28.004c9.192 0 16.46 6.627 18.235 15.263 15.541-13.061 37.431-15.263 49.616-15.263h32.13c7.653 0 14.579 4.703 17.465 11.864l5.579 13.745h31.595l5.793-13.938c2.929-7.033 9.812-11.65 17.486-11.65h55.794c10.475 0 18.94 8.487 18.94 18.94v18.106l16.824-27.897c3.442-5.665 9.577-9.149 16.247-9.149h38.821c10.475 0 18.94 8.487 18.94 18.94v114.73c0 10.453-8.508 18.94-18.94 18.94zM314.669 489.407h-28.111l-0.107 89.847-39.761-89.847h-24.092l-39.825 89.933v-89.933h-55.815l-10.539 25.588h-57.077l-10.646-25.588h-29.8l49.103 114.73h40.702l46.666-108.638v108.638h44.763l35.892-77.834 32.942 77.834h45.704c0 0 0-114.73 0-114.73zM426.684 580.238h-64.174v-20.672h62.656v-23.515h-62.656v-22.916h64.174v-23.728h-91.579v114.73h91.579v-23.899zM536.498 542.636c6.007-2.309 11.137-6.328 13.574-9.662 3.891-5.708 4.553-10.795 4.553-21.035v-22.51h-27.662l-0.128 14.472c0 6.883 0.663 16.802-4.318 22.339-3.997 4.019-10.111 4.895-19.987 4.895h-29.393v-41.728h-27.469v114.709h63.062c14.023 0 24.348-0.363 33.198-5.494 8.679-5.13 13.874-12.612 13.874-25.417 0-18.277-12.206-27.747-19.303-30.569zM599.752 489.407h-28.004v114.73h28.004v-114.73zM924.255 489.407h-38.842l-52.010 86.106v-86.106h-55.794l-10.688 25.588h-56.991l-10.304-25.588h-32.108c-13.318 0-30.142 2.95-39.676 12.677-9.705 9.748-14.707 22.959-14.707 43.801 0 17.016 3.014 32.579 14.686 44.892 8.829 9.149 22.702 13.361 41.642 13.361h26.486v-24.584h-25.973c-9.983 0-15.648-1.475-21.078-6.798-4.682-4.831-7.867-13.959-7.867-25.994 0-12.27 2.437-21.12 7.567-26.914 4.254-4.553 11.95-5.921 19.111-5.921h12.292l38.735 90.211h41.087l46.388-108.51v108.51h41.792l48.184-79.907v79.907h28.068v-114.73zM679.531 560.593l-11.907-27.769c-2.629 0-4.404 0.299-5.387 0.556-0.919 1.71-2.18 5.494-2.18 13.361 0 7.952 1.924 12.078 2.18 12.441 0.791 0.77 1.454 1.432 7.888 1.432l9.406-0.021zM398.702 349.089l42.113-46.773v91.985zM333.417 382.907h-68.706v-20.843h60.176v-23.429h-60.176v-22.831h67.38l31.317 33.711z" />
<glyph unicode="&#xe902;" glyph-name="apple-pay" horiz-adv-x="2188" d="M560.749 535.871c1.138-120.779 109.402-160.952 110.627-161.477-0.875-2.888-17.329-57.326-56.976-113.515-34.396-48.574-70.017-97.061-126.206-98.111-55.226-0.963-72.905 31.683-136.008 31.683s-82.795-30.632-135.045-32.645c-54.176-2.013-95.486 52.6-130.144 101.087-70.717 99.074-124.805 279.981-52.163 402.161 36.059 60.652 100.475 99.074 170.492 100.037 53.213 0.963 103.45-34.658 136.008-34.658 32.47 0 93.56 42.885 157.801 36.584 26.869-1.138 102.312-10.503 150.712-79.207-3.938-2.363-90.059-50.937-89.097-151.937zM457.037 832.569c28.795 33.783 48.137 80.695 42.885 127.431-41.485-1.575-91.635-26.782-121.392-60.477-26.694-29.845-50.062-77.631-43.761-123.493 46.299-3.413 93.473 22.756 122.267 56.539zM873.551 890.333c23.456 3.851 46.999 7.089 70.63 9.715 28.182 2.976 56.539 4.464 84.896 4.289 44.111 0 82.095-5.164 114.128-15.579s58.289-25.294 78.857-44.723c17.854-17.417 31.858-38.334 41.398-61.352 9.89-23.718 14.791-51.025 14.791-81.832 0-37.372-6.739-70.017-20.392-98.024-13.041-27.394-32.12-51.463-55.664-70.542-23.543-18.992-51.463-33.171-83.845-42.535-32.383-9.277-67.654-14.003-105.901-14.003-34.571 0-63.541 2.538-87.084 7.527v-310.176h-51.813v717.238zM925.451 528.432c12.516-3.588 26.431-6.126 41.923-7.527 15.491-1.488 31.945-2.188 49.625-2.188 66.166 0 117.454 15.054 153.775 45.249 36.409 30.195 54.613 74.306 54.613 132.507 0 28.007-4.814 52.425-14.354 73.255-9.102 20.217-23.106 37.809-40.785 51.112s-38.597 23.368-62.84 30.195c-24.243 6.827-51.112 10.24-80.52 10.24-23.543 0-43.761-0.875-60.652-2.713s-30.545-3.763-40.785-5.951v-324.179zM1690.475 295.713c0-20.83 0.35-41.66 1.138-62.49 0.7-20.83 2.888-40.872 6.652-60.302h-48.487l-7.702 73.255h-2.276c-6.652-10.065-15.054-20.13-25.381-30.195s-22.23-19.167-35.796-27.482c-13.653-8.227-29.057-14.879-46.299-19.955-18.467-5.164-37.634-7.702-56.801-7.527-25.731 0-48.312 4.114-67.829 12.428-19.517 8.227-35.446 18.992-47.962 32.295-12.428 13.216-21.968 28.795-28.094 45.774-6.126 16.542-9.277 34.046-9.365 51.725 0 61.002 26.256 108.089 78.857 141.084 52.6 33.083 131.807 48.837 237.708 47.437v14.003c0 13.653-1.313 29.32-3.851 46.911s-8.402 34.571-17.154 50.062c-8.84 15.754-22.055 29.057-39.647 39.822-17.679 10.765-41.573 16.191-71.68 16.191-22.843 0-45.424-3.413-67.829-10.24s-42.798-16.279-61.177-28.532l-16.542 37.722c23.543 15.754 47.787 27.044 72.73 33.871 25.556 6.914 51.813 10.328 78.332 10.24 36.759 0 66.691-6.126 89.884-18.292s41.31-28.007 54.613-47.349c13.391-19.692 22.581-41.835 27.044-65.203 4.726-23.543 7.177-47.612 7.177-71.592l-0.263-203.662zM1638.663 449.75c-29.232 0.7-58.552-0.35-87.696-3.238-30.457-2.888-58.639-9.19-84.283-18.817-25.731-9.715-47.086-23.893-63.978-42.535s-25.381-43.411-25.381-74.306c0-36.584 10.678-63.541 32.033-80.782 21.268-17.242 45.161-25.819 71.68-25.819 21.355 0 40.435 2.888 57.326 8.665s31.595 13.478 44.111 23.106c12.516 9.627 22.931 20.655 31.42 32.821 8.49 12.253 14.879 24.769 19.342 37.722 3.676 14.354 5.514 24.769 5.514 31.245l-0.088 111.94zM1791.825 689.997l134.52-336.082c7.527-18.992 14.529-38.247 21.005-57.589 6.652-19.78 12.516-37.897 17.679-54.438h2.188c5.164 15.754 11.028 33.521 17.679 53.301 6.652 19.692 14.003 39.997 22.055 60.915l125.768 333.894h55.138l-153.25-379.143c-14.003-36.671-28.532-73.080-43.586-109.314-12.341-30.107-26.169-59.515-41.31-88.309-12.603-24.068-26.869-47.262-42.448-69.492-13.741-19.517-29.845-37.197-47.962-52.775-20.568-17.942-39.472-31.070-56.801-39.297-17.242-8.227-28.795-13.478-34.746-15.579l-17.679 42.010c15.141 6.739 29.845 14.266 44.111 22.581 17.242 10.152 33.171 22.493 47.437 36.584 13.216 12.953 27.744 29.932 43.586 51.2 15.841 21.18 29.932 46.824 42.448 77.019 4.376 11.465 6.652 19.080 6.652 22.668 0 4.989-2.188 12.516-6.652 22.581l-190.797 479.355 54.963-0.088z" />
<glyph unicode="&#xe903;" glyph-name="dines-club" horiz-adv-x="1455" d="M551.254 920.841c-113.232-29.583-201.983-112.661-234.974-219.63-55.207-177.52 42.091-364.711 218.469-421.022 43.233-13.65 52.352-14.221 176.378-14.792 150.202 0 176.378 4.55 249.213 42.11 81.935 42.681 149.079 125.739 171.828 212.796 46.089 176.949-75.672 364.711-261.721 403.394-62.023 13.059-266.289 11.365-319.193-2.856zM714.535 894.665c54.046-15.934 97.298-42.11 135.981-81.364 66.001-66.572 95.014-142.816 89.322-233.85-11.365-180.356-173.522-312.359-351.613-285.041-142.816 22.178-250.336 140.531-259.436 285.041-8.529 143.387 78.528 267.984 220.201 313.501 40.949 13.097 123.455 14.221 165.546 1.713zM546.133 774.618c-49.496-25.034-92.177-92.748-97.869-155.323-4.55-47.802 13.65-103.561 44.375-138.837 22.768-26.176 66.001-58.044 71.122-52.923 1.142 1.142 1.713 81.935 1.142 179.233l-1.713 176.378-17.057-8.529zM702.598 605.055c0-98.421 2.284-179.233 4.55-179.233 9.671 0 50.638 32.991 71.122 57.473 23.891 27.299 43.804 83.077 43.804 121.19 0 27.318-13.65 77.956-27.299 99.563-15.363 25.605-48.944 58.044-70.551 69.409l-21.626 10.813v-179.214zM1082.101 190.277c-14.221-6.263-14.792-7.957-7.386-14.221 7.386-6.263 9.1-23.32 9.1-100.706 0-90.464-0.571-93.319-11.955-93.319-6.263 0-9.671-2.284-7.977-5.692 4.55-6.834 65.43-7.386 65.43-0.571 0 2.837-5.121 6.263-11.384 7.957-10.813 2.856-11.384 7.977-11.384 108.682 0 58.025-1.713 105.827-3.979 105.256-2.837 0.019-11.936-3.408-20.465-7.386zM1294.325 190.848c-19.913-9.1-19.913-9.1-9.1-17.076 9.671-6.834 10.242-16.505 8.529-107.54-2.284-97.298-2.284-100.135 9.1-100.135 6.263 0 21.626-1.713 34.704-3.979 40.397-6.834 77.385 21.626 84.772 65.43 7.977 48.354-31.868 88.198-74.53 73.959-10.242-3.408-20.484-9.1-22.197-11.955-2.284-2.837 1.713-2.837 9.671 0 7.386 2.837 18.77 2.837 25.605 0 16.505-6.263 35.847-37.56 35.847-58.044 0-22.768-15.363-48.944-31.297-55.188-17.076-6.263-39.825 0.571-44.946 14.221-1.713 5.121-3.408 54.046-3.408 108.663s-1.713 98.992-3.979 98.44c-2.856 0.038-10.813-2.817-18.77-6.796zM32.915 178.341l15.934-9.1-1.713-89.322c-1.713-86.485-2.265-89.322-14.221-95.014-27.318-11.955-11.384-15.934 51.21-12.526 69.98 2.837 89.893 8.529 113.784 31.297s32.439 42.681 32.439 75.672c0 38.702-17.647 69.98-51.21 89.322-23.32 14.221-31.868 15.363-93.871 17.076-64.288 1.123-67.143 1.123-52.352-7.405zM147.289 159.551c29.012-17.076 43.233-43.804 43.233-80.222 0-56.902-31.297-91.606-83.649-91.606-18.199 0-25.605 2.856-30.155 10.813-6.263 12.507-7.957 167.278-1.142 173.541 6.263 6.815 52.352-1.142 71.712-12.526zM249.118 177.77c-1.713-4.55-0.571-11.384 2.837-14.792 8.529-8.529 24.463 4.55 19.913 15.934-3.96 10.794-18.18 10.242-22.749-1.142zM927.33 176.057c-89.322-40.968-86.485-170.115 3.979-208.246 11.955-4.55 29.012-8.529 38.683-8.529 19.913 0 67.715 10.813 70.551 16.505 6.263 10.813 9.1 46.089 3.408 46.089-2.856 0-5.692-3.979-5.692-9.1 0-4.55-7.386-16.505-16.505-25.605-40.397-40.397-109.805-4.55-125.168 64.288-14.792 64.288 18.199 117.782 74.53 122.903 25.034 1.713 32.991 0 46.089-10.242 9.1-7.386 18.77-19.342 22.768-27.889 5.692-13.65 6.263-13.65 7.977-2.837 1.142 6.263 0 18.199-3.427 25.605-9.652 26.728-75.653 36.399-117.192 17.057zM253.116 98.671c-15.934-5.692-18.199-7.957-9.671-11.384 7.977-3.408 9.671-11.955 9.671-54.617 0-40.968-1.713-50.638-8.529-50.638-4.55 0-8.529-2.284-8.529-5.692 0-2.837 14.221-5.692 31.297-5.692s31.297 2.837 31.297 5.692c0 3.408-3.979 5.692-8.529 5.692-6.834 0-8.529 10.242-8.529 59.167 0 32.991-1.713 60.88-3.979 62.023-2.894 1.142-13.707-0.552-24.501-4.55zM334.461 99.813c-20.484-6.263-23.891-11.955-10.242-17.647 6.834-2.265 8.529-13.65 8.529-51.781 0-39.254-1.713-48.354-8.529-48.354-4.55 0-8.529-2.284-8.529-5.692 0-2.837 13.078-5.692 28.441-5.692 15.934 0 28.441 2.837 28.441 5.692 0 3.408-3.979 5.692-8.529 5.692-6.834 0-8.529 9.1-8.529 47.231 0 45.517 0.571 47.802 14.221 54.046 38.131 17.647 48.354 6.263 48.354-54.046 0-38.131-1.713-47.231-8.529-47.231-4.55 0-8.529-2.284-8.529-5.692 0-2.837 13.078-5.692 28.441-5.692 15.934 0 28.441 2.837 28.441 5.692 0 3.408-3.979 5.692-8.529 5.692-6.834 0-8.529 9.671-8.529 51.21 0 43.804-1.713 52.904-11.384 62.594-14.221 14.221-31.868 14.221-55.188 0-17.076-10.242-18.199-10.242-19.913-0.571-1.694 7.957-4.55 9.1-19.913 4.55zM496.618 98.119c-46.089-24.463-45.517-113.803 1.142-133.145 21.626-9.1 49.496-3.979 66.572 12.526 15.363 14.221 18.199 27.87 3.408 14.792-34.133-30.155-81.364-4.55-81.364 43.804 0 14.221 0.571 14.221 45.517 14.221 40.968 0 45.517 1.142 45.517 10.813 0 18.77-6.263 29.012-23.32 37.541-19.913 10.813-37.56 10.242-57.473-0.552zM550.112 82.185c8.529-12.507 3.979-14.792-30.155-14.792-31.297 0-34.133 1.142-27.318 9.1 15.363 18.77 47.231 21.626 57.473 5.692zM603.587 97.548c-11.955-6.263-14.221-10.242-9.671-14.792 3.408-3.408 6.263-26.747 6.263-53.494 0-38.131-1.713-47.231-8.529-47.231-4.55 0-8.529-2.284-8.529-5.692s15.363-5.692 34.133-5.692 34.133 2.284 34.133 5.692-6.263 5.692-14.221 5.692h-14.792l1.142 59.738c0.571 32.991 0 60.88-1.142 62.023s-9.671-1.694-18.79-6.244zM641.718 98.671c-18.77-13.078-16.505-17.628 10.242-18.199 20.484-1.142 22.768 0 21.055 11.384-2.284 15.363-14.792 18.199-31.297 6.815zM707.148 95.835c-21.055-16.505-21.626-40.968-1.142-59.738 8.529-7.957 18.77-14.221 22.768-14.221 3.979 0 12.507-6.834 18.77-14.792 14.792-19.342 7.405-36.418-15.934-36.418-15.934 0-34.704 14.792-34.704 27.318 0 3.979-2.284 6.834-5.121 6.834-7.405 0 0-30.726 9.671-38.131 21.055-17.076 72.264-1.142 78.509 23.339 5.692 23.32-2.856 36.989-31.297 51.21-31.297 16.505-43.233 28.441-38.112 40.397 7.405 19.342 47.783 17.076 52.923-2.837 4.55-17.628 13.65-13.078 9.671 4.55-5.121 19.913-3.408 18.77-29.012 22.197-16.505 2.227-25.053-0.038-36.989-9.709zM1129.313 101.527c0-2.856 3.979-5.692 8.529-5.692 6.834 0 8.529-9.1 8.529-47.802 0-56.33 2.284-64.859 21.055-72.245 10.242-3.979 20.484-2.284 39.254 5.692 20.484 9.1 25.034 9.671 25.034 2.837 0-9.1 18.77-10.242 36.989-2.284 10.813 4.55 10.813 5.121-1.142 5.121-12.526 0.571-13.078 2.265-13.078 60.309 0 64.859 0.571 64.288-34.133 54.617l-14.221-3.979 13.078-4.55c11.384-3.979 12.526-7.957 12.526-45.517 0-44.375-3.408-51.21-29.012-57.454-24.463-6.263-33.562 13.078-33.562 69.409v47.231h-19.913c-10.832 0-19.932-2.284-19.932-5.692z" />
<glyph unicode="&#xe904;" glyph-name="master-card" d="M717.506 754.557c-79.103-0.021-151.206-30.004-205.549-79.251-54.384 49.183-126.446 79.187-205.464 79.187-0.655 0-1.332 0-1.966 0-168.27-1.1-304.527-137.991-304.527-306.494 0-169.179 137.314-306.473 306.473-306.473 79.018 0 151.080 29.962 205.443 79.187-11.355 10.255-21.631 21.61-31.337 33.493h63.286c-9.536-11.693-19.94-22.646-31.125-32.838h-0.042c-0.254-0.275-0.529-0.444-0.782-0.677 54.406-49.267 126.552-79.293 205.697-79.272 169.264 0.063 306.43 137.335 306.388 306.578 0 0.063 0 0.106 0 0.148 0.021 169.243-137.23 306.451-306.494 306.409zM484.089 643.653h58.254c8.585-10.403 16.556-21.356 23.788-32.817h-103.927c6.703 10.953 14.061 22.223 21.885 32.817zM444.104 578.654h139.704c4.969-10.615 9.367-21.589 13.215-32.838h-169.476c1.692 3.172 7.612 15.943 16.556 32.838zM125.114 369.933l18.586 117.184-41.93-117.184h-22.477l-2.918 117.184-19.855-117.184h-31.485l26.093 155.414h47.618l1.67-95.363 32.161 95.363h51.657l-25.733-155.414h-33.388zM236.441 370.187l1.078 12.412c-0.507-0.063-10.446-14.992-33.472-14.992-12.053 0-31.506 6.576-31.506 35.164 0 36.348 29.645 48.4 57.873 48.4 4.44 0 14.019-0.804 14.019-0.804s1.078 2.22 1.078 8.225c0 9.875-8.881 11.228-21.039 11.228-21.42 0-35.566-5.73-35.566-5.73l4.736 28.123c0 0 17.17 7.189 39.52 7.189 11.566 0 44.827-1.226 44.827-39.35l-12.814-89.865h-28.736zM357.876 409.77c0-43.368-42.015-41.507-49.352-41.507-27.383 0-35.84 3.785-36.623 3.996l4.356 28.545c0.042 0.254 13.744-4.969 28.99-4.969 8.796 0 20.214 0.867 20.214 11.376 0 15.732-40.852 11.968-40.852 49.331 0 32.965 24.486 42.607 48.633 42.607 18.65 0 30.11-2.559 30.11-2.559l-4.123-28.799c0 0-17.698 1.459-22.287 1.459-11.608 0-17.931-2.537-17.931-10.657-0.021-16.324 38.864-8.331 38.864-48.823zM408.327 398.394c2.897 0 6.174 0.994 8.416 0.994l-4.081-27.721c-3.277-0.909-12.56-4.208-24.465-4.292-15.203-0.127-26.008 8.373-26.008 27.657 0 12.941 18.544 119.574 19.263 120.272h32.626l-3.32-19.073h16.281l-4.166-30.723h-17.275l-9.177-56.605c-0.698-4.504 0.55-10.509 11.905-10.509zM480.093 499.826c35.819 0 46.54-26.22 46.54-47.724 0-8.606-4.314-29.751-4.314-29.751h-66.31c0 0-6.132-26.114 28.905-26.114 16.43 0 34.656 8.035 34.656 8.035l-5.751-31.442c0 0-10.53-5.371-34.466-5.371-25.945 0-56.372 10.974-56.372 57.070 0.021 39.943 24.295 75.297 57.112 75.297zM566.511 285.777h-108.727c-6.618 10.572-12.793 21.42-18.1 32.817h144.694c-5.328-11.334-11.291-22.287-17.867-32.817zM559.216 369.701h-33.493l20.362 126.488h30.385l-2.918-18.333c0 0 10.826 19.94 25.437 19.94 4.25 0 6.301-0.423 6.301-0.423-4.335-8.839-8.162-16.937-12.137-37.849-22.667 8.035-24.401-35.798-33.937-89.823zM686.825 371.667c0 0-17.55-4.483-28.545-4.483-38.949 0-58.719 26.875-58.719 67.579 0 61.383 36.644 94.073 74.303 94.073 17.022 0 36.75-7.993 36.75-7.993l-5.328-34.572c0 0-13.342 9.325-29.941 9.325-22.202 0-42.12-21.187-42.12-59.692 0-18.967 9.283-36.644 32.457-36.644 11.016 0 26.981 8.014 26.981 8.014l-5.836-35.608zM765.378 370.124l1.1 12.497c-0.529-0.063-10.467-14.992-33.472-14.992-12.053 0-31.506 6.576-31.506 35.164 0 36.348 29.645 48.4 57.852 48.4 4.44 0 14.040-0.804 14.040-0.804s1.1 2.199 1.1 8.204c0 9.875-8.881 11.228-21.060 11.228-21.42 0-35.544-5.73-35.544-5.73l4.736 28.123c0 0 17.17 7.189 39.541 7.189 11.545 0 44.827-1.226 44.806-39.35l-12.814-89.865c-0.021-0.063-28.778-0.063-28.778-0.063zM833.189 369.701h-33.493l20.362 126.488h30.406l-2.918-18.333c0 0 10.847 19.94 25.458 19.94 4.25 0 6.28-0.423 6.28-0.423-4.314-8.839-8.183-16.937-12.137-37.849-22.688 8.035-24.422-35.798-33.959-89.823zM933.183 370.039l1.417 11.651c0 0-10.826-13.66-30.406-13.66-27.129 0-40.429 26.198-40.429 52.968 0 41.402 24.909 77.496 54.807 77.496 19.242-0.042 31.527-17.022 31.527-17.022l7.062 43.664 32.711 0.063-24.951-155.16h-31.738zM997.717 374.416c-0.867-1.565-2.093-2.77-3.658-3.7-1.544-0.867-3.193-1.311-4.927-1.311-1.692 0-3.32 0.444-4.884 1.311-1.565 0.93-2.791 2.136-3.658 3.7-0.888 1.586-1.311 3.193-1.311 4.906 0 1.734 0.444 3.383 1.311 4.948s2.157 2.833 3.7 3.679c1.607 0.867 3.193 1.311 4.842 1.311 1.692 0 3.299-0.444 4.863-1.311 1.607-0.867 2.833-2.072 3.721-3.679 0.909-1.586 1.311-3.235 1.311-4.948s-0.423-3.341-1.311-4.906zM995.095 280.893c-0.211 0.148-0.402 0.381-0.74 0.507s-0.867 0.19-1.692 0.19h-1.988v-3.172h2.114c0.994 0 1.649 0.085 2.030 0.444 0.359 0.296 0.529 0.655 0.529 1.163 0 0.338-0.085 0.571-0.254 0.867zM1001.925 282.796c-0.909 1.649-2.157 2.812-3.743 3.679s-3.193 1.311-4.842 1.311c-1.692 0-3.299-0.444-4.863-1.311s-2.855-2.072-3.721-3.679c-0.909-1.565-1.311-3.214-1.311-4.906s0.444-3.362 1.311-4.906c0.909-1.565 2.136-2.833 3.679-3.7 1.565-0.867 3.214-1.311 4.948-1.311 1.692 0 3.341 0.444 4.884 1.311s2.791 2.136 3.658 3.7c0.888 1.544 1.311 3.193 1.311 4.906s-0.444 3.362-1.311 4.906zM995.835 272.393v0l-0.93 1.67c-0.74 1.311-1.353 2.178-1.818 2.516-0.296 0.211-0.761 0.381-1.353 0.381h-0.994v-4.546h-1.734v10.678h3.679c1.269 0 2.178-0.106 2.685-0.317 0.571-0.211 1.057-0.507 1.353-1.036 0.338-0.486 0.486-1.015 0.486-1.565 0-0.782-0.296-1.438-0.825-2.051-0.55-0.55-1.311-0.909-2.22-0.973 0.381-0.127 0.677-0.338 0.909-0.571 0.444-0.423 0.952-1.121 1.586-2.093l1.311-2.093h-2.136zM233.058 426.919c-23.915 0-28.757-10.742-28.757-19.686 0-4.61 2.643-12.306 12.771-12.306 19.644 0 23.724 25.754 23.090 31.231-0.93 0.19-1.522 0.74-7.105 0.761zM480.219 470.625c-17.783 0-21.208-20.236-21.208-22.371h36.221c0 1.628 3.404 22.371-15.013 22.371zM924.218 467.094c-14.357 0-25.712-16.662-25.691-41.972 0-15.436 5.498-25.331 17.254-25.331 17.677 0 26.198 23.069 26.198 40.26 0 18.967-6.026 27.044-17.762 27.044zM996.237 383.424c-0.74 1.311-1.776 2.326-3.087 3.066s-2.643 1.1-4.039 1.1c-1.353 0-2.728-0.381-4.039-1.1-1.311-0.677-2.347-1.734-3.087-3.066s-1.121-2.749-1.121-4.123c0-1.417 0.381-2.812 1.078-4.102 0.782-1.311 1.776-2.305 3.087-3.087 1.311-0.719 2.664-1.142 4.081-1.142s2.812 0.423 4.081 1.142c1.311 0.74 2.326 1.755 3.087 3.087 0.74 1.311 1.078 2.685 1.078 4.102 0 1.396-0.381 2.791-1.121 4.123zM991.648 373.866l-0.952 1.649c-0.74 1.332-1.332 2.178-1.776 2.495-0.359 0.275-0.782 0.402-1.396 0.402h-0.973v-4.525h-1.776v10.657h3.7c1.248 0 2.178-0.106 2.707-0.338 0.529-0.19 0.994-0.55 1.353-1.015s0.486-0.994 0.486-1.565c0-0.782-0.296-1.438-0.846-2.030-0.55-0.613-1.311-0.867-2.199-0.973 0.423-0.169 0.698-0.359 0.909-0.55 0.444-0.444 0.952-1.078 1.565-2.093l1.311-2.114c0 0-2.114 0-2.114 0zM762.037 426.919c-23.915 0-28.757-10.742-28.757-19.686 0-4.61 2.622-12.306 12.771-12.306 19.644 0 23.703 25.754 23.090 31.231-0.952 0.19-1.544 0.74-7.105 0.761zM990.93 382.367c-0.169 0.211-0.402 0.381-0.719 0.529-0.359 0.106-0.888 0.211-1.734 0.211v-0.021h-1.924v-3.214h2.093c0.994 0 1.649 0.127 2.051 0.444 0.317 0.317 0.507 0.719 0.507 1.184 0 0.359-0.085 0.571-0.275 0.867z" />
<glyph unicode="&#xe905;" glyph-name="paypal" d="M183.535 541.454c-3.352 6.724-8.654 12.27-15.235 16.434-6.866 4.205-14.971 7.15-24.234 8.897-9.426 1.706-20.314 2.478-32.929 2.6l-58.24-0.041c-6.054-0.081-11.985-4.794-13.407-10.644l-39.185-170.677c-1.422-5.769 2.377-10.604 8.43-10.604h27.891c6.054 0 12.046 4.692 13.387 10.604l9.568 41.44c1.28 5.769 7.252 10.584 13.367 10.584h7.983c34.107 0.041 60.515 7.008 79.488 20.964 19.075 13.976 28.48 32.441 28.48 55.315-0.020 10.015-1.666 18.425-5.363 25.128zM123.386 485.692c-8.43-6.175-20.151-9.263-35.265-9.263h-6.825c-6.074 0-9.791 4.794-8.471 10.644l8.39 36.24c1.178 5.81 7.293 10.624 13.285 10.584l9.141 0.061c10.665 0 18.811-1.849 24.255-5.424 5.383-3.535 8.085-9.162 8.044-16.617 0.163-11.335-4.164-20.050-12.554-26.225zM978.619 556.019l-1.747-0.528-2.336-0.325-2.864 0.447-1.463 1.422-0.67 2.235-0.041 3.352v12.412h9.324v3.839h-9.324v7.74h-4.611v-7.74h-3.128v-3.839h3.128v-14.443l2.153-7.15 6.338-2.275 2.661 0.223 2.824 0.548v4.083zM1021.867 576.901l-6.663 2.742-4.916-0.995-4.997-3.372-2.905 3.23-4.713 1.117-4.53-0.995-4.286-2.763v3.006h-4.53v-27.119h4.51v20.253l3.799 2.356 3.778 0.934 3.088-0.548 1.524-1.564 0.67-2.6 0.223-3.352v-15.499h4.53v17.348l-0.081 1.442-0.081 1.32 3.86 2.458 3.819 0.955 2.986-0.548 1.625-1.564 0.569-2.62 0.305-3.311v-15.499h4.55v17.612zM318.033 517.057c-10.523 5.932-27.139 8.897-49.85 8.897-11.234 0-22.426-0.873-33.741-2.62-8.349-1.28-9.162-1.524-14.301-2.641-10.604-2.316-12.27-12.899-12.27-12.899l-3.413-14.037c-1.93-8.958 3.23-8.613 5.383-7.861 4.632 1.381 7.211 2.803 16.678 4.916 9.040 2.052 18.567 3.596 26.124 3.494 11.152 0 19.684-1.178 25.372-3.575 5.607-2.438 8.41-6.622 8.41-12.676l-0.488-3.941-4.022-2.478c-15.824-0.995-27.261-2.458-41.136-4.469-13.57-1.889-25.474-5.2-35.366-9.73-10.624-4.672-18.506-10.949-24.011-18.932-5.322-8.024-7.983-17.754-7.983-29.171 0-10.746 3.86-19.623 11.355-26.489 7.536-6.744 17.49-10.035 29.394-10.035 7.536 0.041 13.367 0.63 17.511 1.625l13.509 4.652 11.437 6.338 10.523 6.947 0.142-0.203-1.056-4.469-0.061-0.183v-0.041c-1.138-5.444 2.153-9.913 7.455-10.441l0.102-0.122h25.9l0.366 0.163c5.566 0.65 10.787 5.119 12.005 10.441l20.334 88.020 1.056 7.171 0.488 6.724c0.081 12.473-5.302 21.715-15.845 27.627zM273.059 418.088l-4.347-5.729-10.969-5.668c-5.16-2.092-10.055-3.149-14.585-3.149-6.866 0-12.249 0.995-15.885 3.027l-5.383 10.462c0 5.668 1.3 10.157 4.083 13.61l11.823 8.044c5.058 1.706 11.234 3.149 18.384 4.144 6.379 0.792 18.973 2.235 20.619 2.275l1.93-3.392c-0.386-1.93-3.961-16.881-5.668-23.625zM824.62 516.935c-10.584 5.932-27.18 8.918-49.83 8.918-11.234 0-22.447-0.873-33.721-2.681-8.369-1.219-9.202-1.483-14.362-2.58-10.584-2.295-12.229-12.92-12.229-12.92l-3.413-14.017c-1.91-8.958 3.128-8.552 5.485-7.861 4.652 1.381 7.15 2.742 16.535 4.936 8.999 2.031 18.607 3.535 26.185 3.494 11.112 0 19.643-1.199 25.311-3.596 5.647-2.438 8.41-6.663 8.41-12.656l-0.427-3.921-3.982-2.539c-15.987-0.955-27.444-2.417-41.176-4.428-13.529-1.889-25.474-5.18-35.387-9.73-10.584-4.692-18.567-10.969-24.011-18.973-5.383-8.024-8.004-17.734-8.004-29.049 0-10.827 3.819-19.704 11.416-26.53 7.577-6.724 17.429-10.096 29.333-10.096 7.496 0.081 13.326 0.569 17.49 1.645l13.468 4.591 11.538 6.338 10.441 7.029 0.183-0.223-0.955-4.51-0.102-0.081 0.041-0.081c-1.259-5.444 2.052-9.954 7.415-10.441l0.041-0.102h0.488c3.514 0 15.662 0 21.451 0h3.941l0.427 0.142c5.505 0.67 10.705 5.139 11.863 10.523l20.395 87.898 1.077 7.211 0.589 6.744c0.020 12.432-5.302 21.634-15.926 27.546zM779.746 417.966l-4.53-5.789-10.868-5.627c-5.16-2.072-10.076-3.149-14.524-3.149-7.090 0-12.33 1.016-15.865 3.047l-5.444 10.421c0 5.688 1.32 10.137 3.982 13.651 2.702 3.311 6.825 6.033 11.945 8.024 4.997 1.706 11.173 3.088 18.364 4.124 6.338 0.792 18.892 2.275 20.517 2.295l1.97-3.392c-0.284-1.93-3.88-16.82-5.546-23.605zM690.041 540.824c-3.494 6.765-8.735 12.229-15.357 16.495-6.785 4.225-14.829 7.191-24.234 8.897-9.243 1.645-20.273 2.539-32.807 2.56l-58.321-0.041c-6.074-0.102-11.904-4.814-13.306-10.604l-39.226-170.758c-1.422-5.789 2.478-10.584 8.41-10.584l27.932 0.041c5.932-0.041 12.005 4.713 13.407 10.563l9.446 41.461c1.381 5.769 7.374 10.624 13.407 10.584h7.983c34.148 0 60.616 7.029 79.671 20.944 18.831 14.077 28.358 32.502 28.358 55.396-0.102 9.974-1.828 18.404-5.363 25.047zM629.891 484.981c-8.41-6.054-20.151-9.141-35.184-9.141h-6.947c-5.993-0.061-9.873 4.814-8.532 10.624l8.451 36.179c1.239 5.789 7.293 10.644 13.326 10.584l9.040 0.061c10.726-0.061 18.77-1.828 24.255-5.403 5.464-3.575 8.044-9.182 8.105-16.617 0.061-11.335-4.144-20.070-12.513-26.286zM929.195 556.77c1.28 5.83-2.377 10.563-8.369 10.482h-24.986c-5.119 0-9.73-3.799-11.985-8.471l-1.381-2.153-1.259-5.525-34.919-158.732-1.138-4.875 0.041-0.122c-1.158-5.221 2.052-9.162 7.008-9.913l0.427-0.589h25.941c5.078 0 9.852 3.86 12.026 8.613l1.341 2.031 37.337 169.235-0.081 0.020zM507.561 523.821c-6.602-0.081-33.437 0-33.437 0-6.013 0-13.732-4.855-17.551-10.644 0 0-39.937-68.539-43.817-75.425l-4.632 0.061-12.432 74.897c-1.381 5.891-7.536 10.929-15.195 10.929l-24.986-0.041c-6.013 0-9.71-4.794-8.349-10.644 0 0 18.973-107.968 22.772-133.381 1.767-14.017-0.223-16.515-0.223-16.515l-24.702-43.025c-3.656-5.85-1.686-10.624 4.307-10.624l28.886 0.041c6.013 0 13.915 4.733 17.49 10.604l111.117 187.944c0-0.020 10.685 16.048 0.752 15.824z" />
<glyph unicode="&#xe906;" glyph-name="stripe" d="M495.040 547.35c0-75.606 0-150.82 0-226.841 27.071 0 53.64 0 80.536 0 0 75.759 0 151.212 0 226.841-27.005 0-53.509 0-80.536 0zM468.536 549.663c-25.413 6.762-40.486 0.72-55.429-22.992-2.967 5.323-6.108 10.34-8.595 15.662-1.92 4.145-4.581 5.562-9.14 5.497-17.516-0.284-35.011-0.109-52.506-0.153-1.832 0-3.687-0.349-5.344-0.567 0-75.912 0-151.212 0-226.426 27.114 0 53.596 0 80.863 0 0 3.076 0 5.715 0 8.376 0 44.151 0 88.215 0 132.322 0 16.622 2.29 19.283 19.152 21.486 4.145 0.524 8.398 0.807 12.521 0.458 8.071-0.763 16.077-1.963 25.129-3.098 0 20.614-0.196 40.792 0.131 60.969 0.065 5.323-2.007 7.199-6.784 8.464zM131.602 446.419c-7.875 5.715-17.058 9.707-25.718 14.288-6.719 3.599-14.179 6.13-20.112 10.711-3.228 2.443-5.802 8.507-5.192 12.412 0.545 3.294 5.672 7.286 9.489 8.289 5.257 1.418 11.299 1.025 16.818 0.218 13.59-2.050 27.049-4.755 41.075-7.329 0 16.513-0.218 33.244 0.131 49.975 0.109 4.843-1.614 6.871-6.021 8.289-27.485 8.835-55.494 11.343-83.808 5.562-26.591-5.41-46.856-19.043-54.621-46.747-1.658-5.824-2.443-11.932-3.643-17.865 0-4.45 0-8.878 0-13.306 0.458-1.658 1.134-3.272 1.352-4.93 2.312-17.844 10.798-32.175 25.348-42.471 7.395-5.17 15.771-9.009 23.755-13.306 6.893-3.752 14.135-7.002 20.767-11.125 5.017-3.141 7.548-8.944 4.821-14.135-1.941-3.708-6.74-7.657-10.754-8.224-7.635-1.112-15.749-0.763-23.45 0.458-12.456 1.898-24.737 5.039-37.759 7.722 0-18.673-0.175-36.669 0.24-54.578 0.044-1.789 3.228-4.559 5.432-5.126 25.544-7.199 51.415-10.732 78.093-8.289 41.097 3.73 64.001 25.108 68.277 65.899 2.639 25.108-2.879 47.859-24.519 63.609zM276.947 390.772c-0.284 2.4-0.262 4.974-0.262 7.395-0.022 30.059-0.022 60.14 0 90.2 0 2.334 0.262 4.69 0.414 7.613 11.016 0 21.29 0 31.826 0 3.577 17.364 7.046 34.182 10.711 51.917-14.659 0-28.576 0-43.191 0 0 23.123 0 45.372 0 68.255-22.075-5.301-43.278-10.645-64.612-15.444-5.301-1.156-6.959-3.839-7.853-8.791-2.639-14.702-5.802-29.318-8.878-44.5-10.165 0-19.654 0-29.143 0 0-17.56 0-34.4 0-51.764 9.903 0 19.196 0 29.274 0 0-3.25 0-5.846 0-8.486 0.022-36.756-0.24-73.425 0.131-110.181 0.327-31.215 14.223-51.982 39.396-58.024 28.51-7.002 56.519-0.96 84.484 4.166 0 19.632 0 38.327 0 57.719-9.62-1.091-18.389-2.421-27.223-2.945-10.143-0.589-13.874 2.836-15.073 12.87zM540.434 657.008c-0.196 0.131-0.371 0.196-0.589 0.305-2.945 0-5.912 0-8.856 0-0.48-0.109-0.982-0.262-1.462-0.458-19.676-2.967-34.749-19.981-34.749-40.486 0-11.539 4.777-21.966 12.456-29.427 4.952-4.886 11.278-8.529 18.542-10.362 3.272-0.829 6.631-1.243 9.882-1.2 0.044 0 0.087 0 0.131 0 22.621 0 40.944 18.345 40.944 40.966 0 21.050-15.837 38.37-36.298 40.661zM932.688 378.774c-14.855 2.269-21.508 12.259-19.371 28.314 35.927 0 72.116 0 110.683 0-1.723 24.584-2.334 47.99-5.432 71.091-2.727 20.243-10.689 38.959-26.198 53.356-18.912 17.604-42.319 21.181-66.75 20.112-47.597-2.138-76.064-23.341-87.713-65.899-9.489-34.597-9.445-69.76-0.218-104.509 8.791-33.244 29.994-54.578 64.503-61.471 30.735-6.151 61.187-4.821 91.443 2.836 17.429 4.385 17.429 4.341 17.429 22.272 0 13.677 0 27.398 0 41.708-7.548-1.352-14.026-2.552-20.505-3.665-19.174-3.185-38.392-7.199-57.872-4.145zM915.237 488.628c0.436 3.425 2.378 7.089 4.734 9.773 7.373 8.616 20.876 6.282 23.166-4.734 2.814-13.524 3.228-27.551 4.821-42.013-13.197 0.022-23.995 0.022-36.254 0.022 1.156 12.674 2.007 24.868 3.534 36.952zM808.175 468.799c-1.462 17.342-4.734 34.226-12.412 49.953-6.959 14.375-17.298 25.326-33.070 29.667-24.191 6.675-47.292 4.297-68.386-10.449-1.963-1.374-3.926-2.683-6.849-4.755-5.977 15.815-18.76 15.51-31.957 14.462-1.963-0.175-3.926-0.022-5.912-0.022-12.739 0-25.478 0-39.025 0 0-3.468 0-6.13 0-8.769 0-97.594 0-195.189 0-292.783 0-2.465 0.175-4.995 0.327-7.417 27.114 0 54.207 0 81.343 0 0 27.005 0 54.076 0 80.558 12.107-1.178 23.559-3.25 35.011-3.185 39.286 0.371 62.845 18.433 74.559 55.996 0.48 1.636 0.982 3.272 1.374 4.995 7.809 30.256 7.7 60.947 4.995 91.748zM724.411 392.146c-3.708-17.953-14.353-22.97-32.372-16.36 0 4.93 0 10.012 0 15.139 0 29.296 0.175 58.592-0.131 87.844-0.044 5.126 1.745 7.722 6.261 9.162 2.552 0.829 5.017 1.92 7.635 2.683 11.147 3.228 18.389-0.436 19.85-11.845 3.883-28.838 4.712-57.894-1.243-86.622z" />
<glyph unicode="&#xe907;" glyph-name="visa-pay" d="M410.015 600.378l-52.041-305.397h83.232l52.084 305.397zM288.186 600.035l-81.519-208.272-8.691 31.447c-16.077 37.891-61.717 92.309-115.3 126.603l74.54-254.683 88.070 0.15 131.077 304.82-88.177-0.064zM166.378 578.178c-4.838 18.603-18.86 24.148-36.264 24.811h-129.044l-1.070-6.080c100.422-24.362 166.87-83.061 194.443-153.641l-28.065 134.909zM661.98 541.828c27.23 0.428 46.968-5.523 62.295-11.688l7.514-3.532 11.26 66.192c-16.484 6.187-42.322 12.823-74.562 12.823-82.247 0-140.218-41.423-140.668-100.786-0.535-43.864 41.295-68.354 72.892-82.975 32.432-14.985 43.307-24.511 43.157-37.891-0.257-20.444-25.86-29.82-49.772-29.82-33.331 0-51.035 4.603-78.372 15.991l-10.725 4.881-11.71-68.354c19.481-8.542 55.424-15.884 92.737-16.27 87.492 0 144.35 40.931 144.949 104.361 0.364 34.701-21.836 61.182-69.938 82.911-29.114 14.172-46.925 23.591-46.754 37.891 0 12.695 15.114 26.267 47.696 26.267zM956.652 600.035h-64.308c-19.973 0-34.83-5.437-43.607-25.346l-123.585-279.88h87.406c0 0 14.257 37.634 17.49 45.876 9.569 0 94.492-0.128 106.587-0.128 2.483-10.661 10.147-45.748 10.147-45.748h77.216l-67.348 305.226zM854.004 403.194c6.85 17.533 33.16 85.351 33.16 85.351-0.45-0.835 6.786 17.661 11.089 29.157l5.609-26.331c0 0 15.948-72.913 19.288-88.177h-69.146z" />
<glyph unicode="&#xe908;" glyph-name="ionicons_svg_md-information-circle-outline" d="M512 780c88.6 0 172-34.6 234.8-97.2 62.6-62.8 97.2-146.2 97.2-234.8s-34.6-172-97.2-234.8c-62.8-62.6-146.2-97.2-234.8-97.2s-172 34.6-234.8 97.2c-62.6 62.8-97.2 146.2-97.2 234.8s34.6 172 97.2 234.8c62.8 62.6 146.2 97.2 234.8 97.2zM512 864c-229.8 0-416-186.2-416-416s186.2-416 416-416 416 186.2 416 416-186.2 416-416 416zM554 240h-84v250h84v-250zM554 572h-84v84h84v-84z" />
<glyph unicode="&#xe909;" glyph-name="ionicons_svg_md-information-circle" d="M512 864c-229.6 0-416-186.4-416-416s186.4-416 416-416 416 186.4 416 416-186.4 416-416 416zM554 240h-84v250h84v-250zM554 572h-84v84h84v-84z" />
<glyph unicode="&#xe90a;" glyph-name="ionicons_svg_md-search" d="M675.018 349.256h-35.002l-13.142 10.972c41.582 50.464 67.844 114.108 67.844 186.514-0.002 157.994-126.926 285.258-284.448 285.258-155.366 0-282.27-127.264-282.27-285.258s126.904-285.256 284.45-285.256c70.022 0 135.662 26.334 185.982 68.016l13.122-10.974v-35.102l218.806-219.426 65.64 65.828-220.982 219.428zM412.45 349.256c-109.404 0-196.926 87.774-196.926 197.486 0 109.716 87.522 197.484 196.926 197.484 109.4 0 196.924-87.768 196.924-197.484 0-109.712-87.524-197.486-196.924-197.486z" />
<glyph unicode="&#xe90b;" glyph-name="ionicons_svg_md-contact" d="M512 864c-228.8 0-416-187.2-416-416s187.2-416 416-416 416 187.2 416 416-187.2 416-416 416zM512 739.2c68.6 0 124.8-56.2 124.8-124.8s-56.2-124.8-124.8-124.8-124.8 56.2-124.8 124.8 56.2 124.8 124.8 124.8zM512 138.4c-104 0-195.6 54-249.6 133.2 2 83.2 166.4 129 249.6 129s247.6-45.8 249.6-129c-54-79-145.6-133.2-249.6-133.2z" />
<glyph unicode="&#xe90c;" glyph-name="ionicons_svg_md-arrow-dropdown" d="M256 576l256-256 256 256z" />
<glyph unicode="&#xe90d;" glyph-name="ionicons_svg_md-heart" d="M512 64l-60.328 54.422c-214.236 196.694-355.672 324.358-355.672 483.388 0 129.748 99.836 230.19 228.8 230.19 72.798 0 141.434-33.484 187.2-87.894 45.764 54.41 114.398 87.894 187.2 87.894 128.964 0 228.8-100.442 228.8-230.19 0-159.032-141.438-286.696-355.672-483.388l-60.328-54.422z" />
<glyph unicode="&#xe90e;" glyph-name="ionicons_svg_md-refresh" d="M512 184c-145.194 0-264 118.81-264 264 0 145.202 118.806 264 264 264 72.6 0 138.598-30.8 184.812-79.202l-140.812-140.798h308v308l-103.396-103.404c-63.792 63.808-151.792 103.404-248.604 103.404-193.594 0-352-158.406-352-352s156.188-352 352-352c162.090 0 296.574 108.268 338.802 256h-93.102c-37.49-99.122-134.276-168-245.7-168z" />
<glyph unicode="&#xe90f;" glyph-name="ionicons_svg_md-heart-empty" d="M699.2 832c-72.8 0-141.4-33.4-187.2-87.8-45.8 54.4-114.4 87.8-187.2 87.8-129 0-228.8-100.4-228.8-230.2 0-159 141.4-286.6 355.6-483.4l60.4-54.4 60.4 54.4c214.2 196.8 355.6 324.4 355.6 483.4 0 129.8-99.8 230.2-228.8 230.2zM537.6 173.4l-8.4-7.8-17.2-15.6-17.2 15.6-8.4 7.8c-100.8 92.6-188 172.6-245.4 244-56 69.4-80.8 126.2-80.8 184.4 0 45.8 16.8 87.8 47.4 118.6 30.4 30.8 72 47.6 117.2 47.6 52.2 0 104-24.4 138.2-65l49-58.2 49 58.2c34.2 40.8 86 65 138.2 65 45.2 0 86.8-16.8 117.4-47.6s47.4-73 47.4-118.6c0-58-25-115-80.8-184.4-57.6-71.4-144.6-151.4-245.6-244z" />
<glyph unicode="&#xe910;" glyph-name="ionicons_svg_md-key" d="M498.4 512c-28.4 80.4-110.2 144-200.4 144-114.4 0-202-93.6-202-208s91.6-208 206-208c90.2 0 168.2 63.6 196.4 144h205.6v-128h138.2v128h85.8v128h-429.6zM303.2 379c-38 0-69 31-69 69s31 69 69 69 69-31 69-69-31-69-69-69z" />
<glyph unicode="&#xe911;" glyph-name="ionicons_svg_md-remove-circle" d="M512 864c-229.75 0-416-186.25-416-416s186.25-416 416-416 416 186.25 416 416-186.25 416-416 416zM726 406h-428v84h428v-84z" />
<glyph unicode="&#xe912;" glyph-name="ionicons_svg_md-alert" d="M512 864c-228.8 0-416-187.202-416-416s187.2-416 416-416 416 187.202 416 416-187.2 416-416 416zM560 240h-96v80h96v-80zM560 416h-96v256h96v-256z" />
<glyph unicode="&#xe913;" glyph-name="ionicons_svg_md-color-wand" d="M401.6 645.6l-72.8-74.8 494.6-506.8 72.6 74.8zM362 832h74v-136h-74zM362 436h74v-136h-74zM540 608h138v-74h-138zM611.2 728.4l-51.4 52.6-94.2-96.6 51.2-52.4zM337.6 684.4l-94.2 96.6-51.2-52.6 94.2-96.4zM192.2 404.2l51.2-52.4 94.2 96.4-51.2 52.6zM128 608h130v-74h-130z" />
<glyph unicode="&#xe914;" glyph-name="ionicons_svg_md-pricetag" d="M832 832h-316.8l-362.2-375.2c-16-16-24.6-37-25-58-0.6-22.6 7.8-45.2 25-62.4l247.4-247.2c16-16 41.6-25 57.6-25s45.6 7.8 62.8 25l375.2 358.8v320l-64 64zM770.6 626.6c-43.4-12.2-82.6 20-82.6 61.4 0 35.4 28.6 64 64 64 41.4 0 73.6-39.2 61.4-82.6-5.8-20.6-22.2-37-42.8-42.8z" />
<glyph unicode="&#xe915;" glyph-name="ionicons_svg_md-document" d="M576 864h-304c-44.184 0-80-35.816-80-80v-672c0-44.184 35.816-80 80-80h480c44.184 0 80 35.816 80 80v496l-256 256zM544 576v224l224-224h-224z" />
<glyph unicode="&#xe916;" glyph-name="ionicons_svg_md-arrow-back" d="M854 490.75h-519.408l239.404 239.404-61.996 59.846-342-342 342-342 59.844 59.848-237.252 239.402h519.408v85.5z" />
<glyph unicode="&#xe917;" glyph-name="ionicons_svg_md-person" d="M512 448c105.61 0 192 86.402 192 192s-86.39 192-192 192-192-86.402-192-192 86.39-192 192-192zM512 352c-127.196 0-384-64.804-384-192v-96h768v96c0 127.196-256.804 192-384 192z" />
<glyph unicode="&#xe918;" glyph-name="ionicons_svg_md-unlock" d="M752 588h-40v80c0 110-90 200-200 200s-200-90-200-200h75.996c0 68.008 56.006 124.004 124.004 124.004 68.008 0 124.004-55.996 124.004-124.004h-0.004v-80h-364c-44.004 0-80-35.996-80-80v-400c0-44.004 35.996-80 80-80h480c44.004 0 80 35.996 80 80v400c0 44.004-35.996 80-80 80zM512 224c-44.004 0-80 35.996-80 80s35.996 80 80 80 80-35.996 80-80-35.996-80-80-80z" />
<glyph unicode="&#xe919;" glyph-name="ionicons_svg_md-call" d="M853.332 298.666c-54.1 0.002-106.195 8.582-155 24.454l3.542-0.996c-14.938 4.272-32 2.146-42.664-10.666l-93.878-93.856c-121.604 61.856-219.728 160-281.604 281.606l93.878 93.854c10.664 10.666 14.924 27.728 10.664 42.666-17.074 49.062-25.604 100.272-25.604 153.606 0 23.458-19.198 42.666-42.666 42.666h-149.334c-23.468 0-42.666-19.208-42.666-42.666 0-401.062 324.272-725.334 725.332-725.334 23.46 0 42.668 19.208 42.668 42.666v149.334c0 23.458-19.208 42.666-42.668 42.666z" />
<glyph unicode="&#xe91a;" glyph-name="ionicons_svg_md-pricetags" d="M884 746v-282l-425.6-407.4c16-16 41.6-24.6 57.6-24.6s45.6 7.4 62.8 24.6l381.2 359.4v256l-76 74zM768 864h-320l-359.4-375.2c-16-16-24-35.6-24.6-56.8-0.6-22.6 7.4-46.6 24.6-63.8l247.6-247.2c16-16 41.6-25 57.6-25s45.4 7.8 62.6 25l375.6 359v320l-64 64zM706.6 658.6c-43.4-12.2-82.6 20-82.6 61.4 0 35.4 28.6 64 64 64 41.4 0 73.6-39.2 61.4-82.6-5.8-20.6-22.2-37-42.8-42.8z" />
<glyph unicode="&#xe91b;" glyph-name="ionicons_svg_md-arrow-dropright" d="M384 704l256-256-256-256z" />
<glyph unicode="&#xe91c;" glyph-name="ionicons_svg_md-close" d="M810 686.404l-59.596 59.596-238.404-238.404-238.404 238.404-59.596-59.596 238.404-238.404-238.404-238.404 59.596-59.596 238.404 238.404 238.404-238.404 59.596 59.596-238.404 238.404z" />
<glyph unicode="&#xe91d;" glyph-name="ionicons_svg_md-star-outline" d="M916 539.182l-290.534 24.952-113.466 267.866-113.486-267.868-290.514-24.95 220.384-191.048-66.062-284.134 249.678 150.628 249.66-150.628-66.042 284.132 220.382 191.050zM545.062 269.428l-33.062 19.948-153.036-92.328 40.496 174.172-135.142 117.152 178.084 15.296 69.594 164.262 69.58-164.26 178.108-15.296-135.138-117.15 40.484-174.174-119.968 72.378z" />
<glyph unicode="&#xe91e;" glyph-name="ionicons_svg_md-star" d="M512 214.628l249.66-150.628-66.042 284.132 220.382 191.050-290.534 24.95-113.466 267.868-113.486-267.868-290.514-24.95 220.384-191.050-66.062-284.132z" />
<glyph unicode="&#xe91f;" glyph-name="ionicons_svg_md-eye" d="M512 750c-203.6 0-376.8-124.8-448-302 71.2-177.2 244.4-302 448-302s376.8 124.8 448 302c-71.2 177.2-244.4 302-448 302zM512 246.6c-112 0-203.6 90.6-203.6 201.4s91.6 201.4 203.6 201.4 203.6-90.6 203.6-201.4-91.6-201.4-203.6-201.4zM512 568.8c-67.2 0-122.2-54.4-122.2-120.8s55-120.8 122.2-120.8 122.2 54.4 122.2 120.8-55 120.8-122.2 120.8z" />
<glyph unicode="&#xe920;" glyph-name="ionicons_svg_md-cart" d="M339.2 204.8c-45.764 0-83.2-37.436-83.2-83.202 0-45.764 37.436-83.2 83.2-83.2s83.202 37.436 83.202 83.2c-0.002 45.768-37.44 83.202-83.202 83.202zM96 857.6v-83.2h83.2l149.766-303.364-62.616-101.908c-6.236-10.4-10.4-24.964-10.4-39.53 0-55.7 38.050-83.2 89.65-83.2h486.4v80h-476.214c-6.236 0-10.4 4.164-10.4 10.4 0 2.072 4.414 10.4 4.414 10.4l41.564 65.6h309.908c31.202 0 58.256 16.634 72.8 43.672l149.764 257.6c2.474 4.922 4.164 12.492 4.164 20.798 0 22.892-18.728 39.53-41.6 39.53h-615.672l-39.528 83.202h-135.2zM748.798 204.8c-45.764 0-83.2-37.436-83.2-83.202 0-45.764 37.436-83.2 83.2-83.2s83.202 37.438 83.202 83.202c0 45.766-37.438 83.2-83.202 83.2z" />
<glyph unicode="&#xe921;" glyph-name="ionicons_svg_md-globe" d="M512 864c-229.752 0-416-186.25-416-416s186.248-416 416-416c229.75 0 416 186.25 416 416s-186.25 416-416 416zM468.902 94.002c-78.928 9.452-151.956 44.784-209.038 101.864-67.348 67.348-104.436 156.89-104.436 252.134 0 85.74 30.072 166.848 85.202 231.318 1.42-17.034 4.926-35.296 4.028-48.35-3.28-47.59-7.976-77.374 19.88-117.524 10.852-15.638 13.518-38.056 18.8-56.156 5.166-17.708 25.804-26.996 40.038-37.906 28.718-22.018 56.192-47.61 86.644-66.988 20.098-12.79 32.652-19.152 26.766-43.678-4.734-19.724-6.056-31.874-16.26-49.446-3.114-5.362 11.754-39.836 16.702-44.784 14.996-14.994 29.876-28.75 46.222-42.25 25.342-20.938-2.462-48.144-14.548-78.234zM764.134 195.866c-51.266-51.266-115.398-84.972-185.112-98.162 9.88 24.432 27.472 46.14 43.79 58.724 14.194 10.952 31.972 32.018 39.386 48.704 7.408 16.664 17.222 31.11 27.154 46.434 14.13 21.798-34.838 54.672-50.706 61.562-35.708 15.502-62.588 36.42-94.322 58.75-22.61 15.908-68.514-8.308-94.040 2.834-34.962 15.266-63.766 41.792-94.156 64.678-31.36 23.618-29.844 51.152-29.844 85.994 24.564-0.906 59.508 6.798 75.816-12.956 5.146-6.234 22.84-34.084 34.684-24.188 9.676 8.086-7.17 40.498-10.424 48.118-10.010 23.43 22.808 32.568 39.606 48.456 21.92 20.728 68.94 53.236 65.224 68.094s-47.048 56.954-72.498 50.386c-3.814-0.984-37.394-36.194-43.882-41.718 0.172 11.492 0.344 22.982 0.52 34.474 0.11 7.256-13.536 14.704-12.902 19.384 1.6 11.828 34.524 33.294 42.714 42.714-5.738 3.586-25.318 20.404-31.244 17.936-14.348-5.98-30.552-10.1-44.9-16.078 0 4.976-0.604 9.65-1.324 14.266 26.255 11.953 56.747 21.138 88.647 26.054l1.973 0.25 28.168-11.32 19.888-23.602 19.848-20.466 17.35-5.59 27.558 25.99-7.106 18.554v16.678c54.5-7.916 105.968-28.248 151.044-59.6-8.064-0.722-16.926-1.908-26.924-3.18-4.13 2.44-9.428 3.548-13.93 5.246 13.062-28.084 26.686-55.78 40.528-83.492 14.786-29.602 47.586-61.354 53.346-92.602 6.788-36.832 2.078-70.288 5.792-113.622 3.576-41.73 47.048-89.144 47.048-89.144s20.074-6.838 36.768-4.456c-15.562-61.566-47.466-118.028-93.538-164.104z" />
<glyph unicode="&#xe922;" glyph-name="ionicons_svg_md-compass" d="M512 497.284c-26.884 0-49.286-22.4-49.286-49.284s22.4-49.286 49.286-49.286 49.286 22.4 49.286 49.286-22.402 49.284-49.286 49.284zM512 896c-246.4 0-448-201.6-448-448s201.6-448 448-448 448 201.6 448 448-201.6 448-448 448zM610.568 349.432l-367.368-170.232 170.232 367.358 367.368 170.242-170.232-367.368z" />
<glyph unicode="&#xe923;" glyph-name="ionicons_svg_md-remove" d="M192 490h640v-84h-640z" />
<glyph unicode="&#xe924;" glyph-name="ionicons_svg_md-person-add" d="M608 448c105.61 0 192 86.402 192 192s-86.39 192-192 192-192-86.402-192-192 86.39-192 192-192zM608 352c-127.196 0-384-64.804-384-192v-96h768v96c0 127.196-256.804 192-384 192zM224 512v128h-64v-128h-128v-64h128v-128h64v128h128v64h-128z" />
<glyph unicode="&#xe925;" glyph-name="ionicons_svg_md-add" d="M832 405.334h-277.334v-277.334h-85.332v277.334h-277.334v85.332h277.334v277.334h85.332v-277.334h277.334v-85.332z" />
<glyph unicode="&#xe926;" glyph-name="angle-arrow-down" d="M1013.768 685.029l-51.299 51.295c-6.836 6.85-14.71 10.264-23.612 10.264-8.88 0-16.751-3.414-23.587-10.264l-403.265-403.244-403.247 403.233c-6.839 6.85-14.71 10.264-23.601 10.264-8.895 0-16.765-3.414-23.601-10.264l-51.292-51.299c-6.85-6.836-10.264-14.706-10.264-23.601 0-8.888 3.425-16.758 10.264-23.594l478.14-478.151c6.836-6.839 14.71-10.257 23.601-10.257s16.751 3.418 23.583 10.257l478.18 478.151c6.836 6.839 10.232 14.71 10.232 23.594 0 8.895-3.396 16.765-10.232 23.615z" />
<glyph unicode="&#xe927;" glyph-name="angle-arrow-upper" d="M10.064 210.96l51.398-51.398c6.829-6.829 14.736-10.423 23.722-10.423s16.893 3.235 23.722 10.423l403.274 403.274 403.274-403.274c6.829-6.829 14.736-10.423 23.722-10.423s16.893 3.235 23.722 10.423l51.398 51.398c6.829 6.829 10.423 14.736 10.423 23.722s-3.594 16.893-10.423 23.722l-478.034 478.034c-6.829 6.829-14.736 10.423-23.722 10.423s-16.893-3.594-23.722-10.423l-478.753-478.394c-6.829-6.829-10.064-14.736-10.064-23.722 0-8.626 3.235-16.534 10.064-23.363z" />
<glyph unicode="&#xe928;" glyph-name="checkmark" d="M372.602 280.214l-180.602 180.864-64-61.014 244.602-244.064 523.398 522.988-64 61.012z" />
<glyph unicode="&#xe92a;" glyph-name="phone-portrait" d="M717.712 896h-411.426c-45.262 0-82.286-36.652-82.286-81.456v-733.090c0-44.802 37.024-81.454 82.286-81.454h411.426c45.264 0 82.288 36.652 82.288 81.456v733.088c0 44.804-37.024 81.456-82.288 81.456zM728 160h-432v576h432v-576z" />
<glyph unicode="&#xe92b;" glyph-name="twitter" d="M984 741c-34.8-15.4-72-25.8-111.2-30.6 40 24 70.8 62 85.2 107.2-37.4-22.2-78.8-38.4-123-47-35.4 37.8-85.8 61.4-141.4 61.4-107 0-193.6-86.8-193.6-193.8 0-15.2 1.6-30 5-44.2-161 8-303.8 85.2-399.2 202.6-16.6-28.6-26.2-62-26.2-97.4 0-67.2 34.4-126.6 86.4-161.4-32 0.8-62 9.6-88 24.2v-2.4c0-94 66.8-172.2 155.4-190-16.2-4.4-33.4-6.8-51-6.8-12.4 0-24.6 1.2-36.4 3.6 24.6-77 96.2-133 181-134.6-66.2-52-149.8-83-240.6-83-15.6 0-31 1-46.2 2.8 85.4-55.6 187.2-87.6 296.4-87.6 356.6 0 551.4 295.4 551.4 551.6 0 8.4-0.2 16.8-0.6 25 37.8 27.4 70.6 61.4 96.6 100.4z" />
<glyph unicode="&#xe92c;" glyph-name="googleplus" d="M636.4 498.2l-3.2 14h-313.2v-128.2h181.4c-18.8-90-96.8-127.2-168.2-127.2-52 0-100.4 15.6-136.6 50.6-37.2 36.2-57.8 86.2-57.8 140.8 0 54.2 19.6 103.6 55.2 139.2 35.4 35.4 84 50.8 137.4 50.8 61 0 99.8-27.6 116.2-42.2l96 95.4c-27 23.4-100.6 82.6-215.4 82.6-88.6 0-173.4-33.6-235.4-95.6-61-61-92.8-148.8-92.8-230.4s30-165.2 89.2-226.6c63.4-65.4 153.2-99.4 245.8-99.4 84.2 0 163.8 33 220.6 92.6 56 58.8 84.8 140.2 84.8 225.4-0.2 36-3.8 57.4-4 58.2zM1024 512h-114v114h-82v-114h-114v-82h114v-114h82v114h114z" />
<glyph unicode="&#xe92d;" glyph-name="pinterest" d="M512 896c-247.4 0-448-200.6-448-448 0-183.4 110.4-341 268.2-410.4-1.2 31.2-0.2 68.8 7.8 102.8 8.6 36.4 57.6 244.2 57.6 244.2s-14.4 28.6-14.4 70.8c0 66.4 38.4 116 86.4 116 40.8 0 60.4-30.6 60.4-67.2 0-41-26.2-102.2-39.6-159-11.2-47.6 23.8-86.2 70.8-86.2 84.8 0 142 109 142 238.2 0 98.2-66.2 171.6-186.4 171.6-135.8 0-220.6-101.4-220.6-214.6 0-39 11.6-66.6 29.6-87.8 8.2-9.8 9.4-13.8 6.4-25-2.2-8.2-7-28-9.2-36-3-11.4-12.2-15.4-22.4-11.2-62.6 25.6-91.8 94-91.8 171.2 0 127.2 107.4 279.8 320.2 279.8 171 0 283.6-123.8 283.6-256.6 0-175.8-97.8-307-241.8-307-48.4 0-93.8 26.2-109.4 55.8 0 0-26-103.2-31.6-123.2-9.4-34.6-28-69-45-96 40.2-11.8 82.8-18.4 127-18.4 247.4 0 448 200.6 448 448 0.2 247.6-200.4 448.2-447.8 448.2z" />
<glyph unicode="&#xe92e;" glyph-name="instagram1" d="M672 768c42.4 0 82.6-16.8 113-47s47-70.6 47-113v-320c0-42.4-16.8-82.6-47-113s-70.6-47-113-47h-320c-42.4 0-82.6 16.8-113 47s-47 70.6-47 113v320c0 42.4 16.8 82.6 47 113s70.6 47 113 47h320zM672 832h-320c-123.2 0-224-100.8-224-224v-320c0-123.2 100.8-224 224-224h320c123.2 0 224 100.8 224 224v320c0 123.2-100.8 224-224 224zM720 608c-26.6 0-48 21.4-48 48s21.4 48 48 48c26.4 0 48-21.4 48-48s-21.6-48-48-48zM512 576c70.6 0 128-57.4 128-128s-57.4-128-128-128-128 57.4-128 128 57.4 128 128 128zM512 640c-106 0-192-86-192-192s86-192 192-192 192 86 192 192-86 192-192 192z" />
<glyph unicode="&#xe92f;" glyph-name="facebook" d="M853.6 832h-683.2c-23.4 0-42.4-19-42.4-42.4v-683.2c0-23.4 19-42.4 42.4-42.4h341.6v304h-91.8v112h91.8v82.8c0 99.2 68.8 153.2 157.4 153.2 42.4 0 88-3.2 98.6-4.6v-103.6h-70.6c-48.2 0-57.4-22.8-57.4-56.4v-71.4h114.8l-15-112h-99.8v-304h213.6c23.4 0 42.4 19 42.4 42.4v683.2c0 23.4-19 42.4-42.4 42.4z" />
<glyph unicode="&#xe930;" glyph-name="text" d="M816 832h-624c-44.004 0-64-35.996-64-80v-688l128 128h560c44.004 0 80 35.996 80 80v480c0 44.004-35.996 80-80 80zM396.8 476h-76.8v80h76.8v-80zM550.4 476h-76.8v80h76.8v-80zM704 476h-76.8v80h76.8v-80z" />
<glyph unicode="&#xe931;" glyph-name="ionicons_svg_logo-googleplus" d="M636.4 498.2l-3.2 14h-313.2v-128.2h181.4c-18.8-90-96.8-127.2-168.2-127.2-52 0-100.4 15.6-136.6 50.6-37.2 36.2-57.8 86.2-57.8 140.8 0 54.2 19.6 103.6 55.2 139.2 35.4 35.4 84 50.8 137.4 50.8 61 0 99.8-27.6 116.2-42.2l96 95.4c-27 23.4-100.6 82.6-215.4 82.6-88.6 0-173.4-33.6-235.4-95.6-61-61-92.8-148.8-92.8-230.4s30-165.2 89.2-226.6c63.4-65.4 153.2-99.4 245.8-99.4 84.2 0 163.8 33 220.6 92.6 56 58.8 84.8 140.2 84.8 225.4-0.2 36-3.8 57.4-4 58.2zM1024 512h-114v114h-82v-114h-114v-82h114v-114h82v114h114z" />
<glyph unicode="&#xe933;" glyph-name="ionicons_svg_md-chatboxes" d="M783.106 832h-667.892c-8.952 0-19.214-7.49-19.214-16.318v-428.434c0-8.826 10.262-17.248 19.214-17.248h114.786v-177.788l180.256 177.788h372.85c8.954 0 14.894 8.422 14.894 17.248v428.434c0 8.828-5.942 16.318-14.894 16.318zM912.792 706h-64.792v-333.14c0-31.974-13.83-52.86-50.304-52.86h-361.504l-77.81-78h259.376l180.242-178v178h114.792c8.956 0 15.208 8.524 15.208 17.364v428.43c0 8.828-6.252 18.206-15.208 18.206z" />
<glyph unicode="&#xe934;" glyph-name="ionicons_svg_md-arrow-forward" d="M170 405.25h519.408l-239.404-239.404 61.996-59.846 342 342-342 342-59.844-59.848 237.252-239.402h-519.408v-85.5z" />
<glyph unicode="&#xe935;" glyph-name="ionicons_svg_md-create" d="M128 224v-160h160l471.454 471.458-159.998 159.996-471.456-471.454zM883.204 659.204c17.062 17.062 17.062 42.668 0 59.73l-100.27 100.27c-17.062 17.062-42.668 17.062-59.73 0l-78.936-78.938 159.998-159.996 78.938 78.934z" />
<glyph unicode="&#xe936;" glyph-name="ionicons_svg_md-arrow-dropleft" d="M640 704l-256-256 256-256z" />
<glyph unicode="&#xe937;" glyph-name="ionicons_svg_md-calendar" d="M736.010 416h-192v-192h192v192zM672.010 832v-64h-320v64h-96v-64h-48.020c-44.004 0-80-35.996-80-80v-544c0-44.004 35.996-80 80-80h608.020c44.004 0 80 35.996 80 80v544c0 44.004-35.996 80-80 80h-48v64h-96zM816.010 144h-608.020v424h608.020v-424z" />
<glyph unicode="&#xe938;" glyph-name="ionicons_svg_md-mail" d="M874.664 800h-725.328c-46.938 0-85.336-38.396-85.336-85.334v-533.332c0-46.938 38.398-85.334 85.336-85.334h725.328c46.938 0 85.336 38.396 85.336 85.334v533.332c0 46.938-38.398 85.334-85.336 85.334zM864 618.666l-352-234.666-352 234.666v85.334l352-234.666 352 234.666v-85.334z" />
<glyph unicode="&#xe939;" glyph-name="ionicons_svg_md-close-circle-outline" d="M512 780c88.6 0 172-34.6 234.8-97.2 62.6-62.8 97.2-146.2 97.2-234.8s-34.6-172-97.2-234.8c-62.8-62.6-146.2-97.2-234.8-97.2s-172 34.6-234.8 97.2c-62.6 62.8-97.2 146.2-97.2 234.8s34.6 172 97.2 234.8c62.8 62.6 146.2 97.2 234.8 97.2zM512 864c-229.8 0-416-186.2-416-416s186.2-416 416-416 416 186.2 416 416-186.2 416-416 416zM720 298.2l-58.2-58.2-149.8 149.8-149.8-149.8-58.2 58.2 149.8 149.8-149.8 149.8 58.2 58.2 149.8-149.8 149.8 149.8 58.2-58.2-149.8-149.8z" />
<glyph unicode="&#xe93a;" glyph-name="ionicons_svg_md-menu" d="M128 192h768v85.332h-768v-85.332zM128 405.332h768v85.334h-768v-85.334zM128 704v-85.33h768v85.33h-768z" />
</font>
</defs>
</svg>
